<?xml version="1.0" standalone="no"?>
<!DOCTYPE svg PUBLIC "-//W3C//DTD SVG 1.1//EN" "http://www.w3.org/Graphics/SVG/1.1/DTD/svg11.dtd">
<svg xmlns="http://www.w3.org/2000/svg">
<metadata>Copyright (C) 2017 by original authors @ fontello.com</metadata>
<defs>
<font id="fontello" horiz-adv-x="1000" >
<font-face font-family="fontello" font-weight="400" font-stretch="normal" units-per-em="1000" ascent="850" descent="-150" />
<missing-glyph horiz-adv-x="1000" />
<glyph glyph-name="pencil-add" unicode="&#xe800;" d="M547 178h125v125h83v-125h125v-83h-125v-125h-83v125h-125z m316 379c16 16 16 43 0 58l-98 98c-15 16-42 16-58 0l-77-76 156-157m-661-349v-156h156l461 461-156 157z" horiz-adv-x="1000" />

<glyph glyph-name="dividers" unicode="&#xe801;" d="M458 767h84v-84h21a63 63 0 0 0 62-62v-146l-18-18 68-119c46 46 75 109 75 179h83c0-101-44-192-115-253l131-226 5-93-78 51-128 222c-44-22-95-35-148-35-53 0-104 13-148 35l-128-222-78-51 5 93 242 419-18 18v146a63 63 0 0 0 63 62h20v84m-65-477c33-15 69-23 107-23 38 0 74 8 107 23l-61 106h-1c-25-25-65-25-90 0h-1l-61-106m107 310a42 42 0 0 1-42-42 42 42 0 0 1 42-41 42 42 0 0 1 42 41 42 42 0 0 1-42 42z" horiz-adv-x="1000" />

<glyph glyph-name="file-xml" unicode="&#xe802;" d="M542 475h229l-229 229v-229m-292 292h333l250-250v-500a83 83 0 0 0-83-84h-500a83 83 0 0 0-83 84v666c0 47 37 84 83 84m5-563l156-156 59 59-97 97 97 97-59 59-156-156m465 0l-156 156-59-59 97-97-97-97 59-59 156 156z" horiz-adv-x="1000" />

<glyph glyph-name="revisions-history" unicode="&#xe803;" d="M458 558v-213l197-116 33 54-167 98v177m0 209c-147 0-275-80-343-199l-95 95v-271h271l-114 114c50 105 156 177 281 177a313 313 0 0 0 312-312 313 313 0 0 0-312-313c-136 0-251 87-294 209h-88c46-168 199-292 382-292 218 0 396 177 396 396a396 396 0 0 1-396 396z" horiz-adv-x="1000" />

<glyph glyph-name="emo-happy" unicode="&#xe804;" d="M261 800c-60 0-109-65-109-144 0-80 49-145 109-145s110 65 110 145c0 79-49 144-110 144z m477 0c-61 0-110-65-110-144 0-80 49-145 110-145 60 0 110 65 110 145 0 79-50 144-110 144z m208-599c-13 0-27-5-37-16-4-4-8-8-12-12-111-109-253-164-396-165-142-2-285 50-396 155l-3 3-12 12c-21 21-54 20-75-1-20-21-20-55 1-76 3-4 8-8 14-14l3-3c132-124 301-186 469-184 169 1 337 67 468 195 5 5 9 10 14 14 20 22 20 56-1 77-10 10-23 15-37 15z" horiz-adv-x="999" />

<glyph glyph-name="emo-wink" unicode="&#xe805;" d="M261 800c-60 0-109-65-109-144 0-80 49-145 109-145s110 65 110 145c0 79-49 144-110 144z m343-98c-29 0-54-24-54-54 0-30 25-54 54-54l267 0c30 0 54 24 54 54 0 30-24 54-54 54l-267 0z m342-501c-13 0-27-5-37-16-4-4-8-8-12-12-111-109-253-164-396-165-142-2-285 50-396 155l-3 3-12 12c-21 21-54 20-75-1-20-21-20-55 1-76 3-4 8-8 14-14l3-3c132-124 301-186 469-184 169 1 337 67 468 195 5 5 9 10 14 14 20 22 20 56-1 77-10 10-23 15-37 15z" horiz-adv-x="999" />

<glyph glyph-name="emo-unhappy" unicode="&#xe806;" d="M261 800c-60 0-109-65-109-144 0-80 49-145 109-145s110 65 110 145c0 79-49 144-110 144z m477 0c-61 0-110-65-110-144 0-80 49-145 110-145 60 0 110 65 110 145 0 79-50 144-110 144z m-244-599c-165 0-331-62-461-184l-3-3c-6-5-11-10-14-14-21-21-21-55-1-76 21-21 54-21 75-1l12 12 3 3c111 105 254 157 396 155 143-1 285-56 396-165 4-4 8-8 12-12 20-21 54-21 74-1 21 21 21 55 1 77-5 5-9 10-14 14-131 129-299 194-468 195-3 0-6 0-8 0z" horiz-adv-x="999" />

<glyph glyph-name="emo-sleep" unicode="&#xe807;" d="M53 693c-11 0-21-4-30-10-24-17-30-50-13-75 45-63 119-102 196-102 71 0 138 32 183 85 20 22 18 55-4 75-22 20-56 18-76-4l0 0-1-1 0 0 0-1-1-1c-3-3-7-7-10-10l-1-1-1-1c-3-3-7-6-11-9l0 0c-59-42-143-29-186 32-11 15-28 23-45 23z m485 0c-11 0-21-4-30-10-24-17-30-50-13-75 45-63 119-102 197-102 70 0 137 32 183 85 19 22 17 55-5 75-22 20-56 18-75-4l-1 0-1-1 0 0 0-1-1-1c-3-3-7-7-10-10l-1-1 0-1c-4-3-8-6-12-9l0 0c-59-42-143-29-186 32-11 15-28 23-45 23z m-435-579c-29 0-53-24-53-53 0-30 24-54 53-54l682 0c30 0 54 24 54 54s-24 53-54 53l-682 0z" horiz-adv-x="888" />

<glyph glyph-name="emo-thumbsup" unicode="&#xe808;" d="M744 850c-60 0-109-64-109-143 0-79 49-143 109-143 60 0 108 64 108 143 0 79-48 143-108 143z m-602-80c-29 0-53-24-53-54s24-53 53-53l290 0c30 0 54 24 54 53s-24 53-54 53l-290 1z m1040-21c-16 0-34-2-54-7-112-51-109-174-93-266l-131 0c-68 0-124-53-124-123 0-34 8-71 30-98-10-11-18-24-23-38-18-48-10-106 23-144-5-6-18-27-18-27-29-57-10-144 46-179 17-11 38-17 64-17l378 0c91 3 167 76 167 169l0 287c0 49-30 108-49 151-25 58-49 116-73 174-30 72-71 118-143 118z m3-115c30 1 42-48 51-67 21-52 42-129 64-181 21-47 38-88 38-104l0-255c0-41-36-72-76-74l-332 0c-17 0-26 9-30 24-5 15-7 34 4 47 6 8 16 13 26 13 21-1 39 17 39 38 0 21-17 37-38 37-9 0-18 4-24 11-15 16-16 50 0 65 3 4 7 6 12 8 4 1 8 2 12 2 20 0 38 17 38 38 0 21-17 38-38 38-28 0-34 28-34 50 0 12 7 23 17 29-1 2 189 4 210 4 27 0 47 30 33 55-27 51-45 207 22 221 2 1 4 1 6 1z m-1133-264c-7 0-14-1-20-4-27-12-39-44-27-71 66-148 194-254 344-297 29-8 59-14 90-17 30-3 61-4 91-2l3 0 2 0c30 3 52 28 50 58-2 29-28 51-58 49l-2 0-1 0c-25-2-50-1-74 1-24 3-48 8-72 14-120 34-222 120-276 238-9 20-29 32-50 31z" horiz-adv-x="1447" />

<glyph glyph-name="folder-image" unicode="&#xe809;" d="M208 142l188 250 146-188 104 125 146-187m41 458h-333l-83 83h-250a83 83 0 0 1-84-83v-500a83 83 0 0 1 84-83h666a83 83 0 0 1 84 83v417a83 83 0 0 1-84 83z" horiz-adv-x="1000" />

<glyph glyph-name="file-export" unicode="&#xe80a;" d="M250 767c-46 0-83-38-83-84v-666a83 83 0 0 1 83-84h500a83 83 0 0 1 83 84v500l-250 250m-41-63l229-229h-229m-170-134h295v-295l-89 89-118-118-117 118 117 117" horiz-adv-x="1000" />

<glyph glyph-name="emo-grin" unicode="&#xe80c;" d="M197 801c-61 0-110-64-110-144 0-80 49-144 110-144s109 64 109 144c0 80-49 144-109 144z m476 0c-60 0-109-64-109-144 0-80 49-144 109-144 61 0 110 64 110 144 0 80-49 144-110 144z m144-480l-765 0c-29 0-52-24-52-54 3-200 238-351 422-354 186-3 442 156 448 355 0 29-24 53-53 53z m-700-106l634 0c-62-121-190-201-331-197-130 4-246 83-303 197z" horiz-adv-x="870" />

<glyph glyph-name="emo-angry" unicode="&#xe80d;" d="M53 738c-20 0-39-11-48-30-13-26-1-58 25-71l152-80c-3-46 8-93 34-128 21-29 52-49 88-49 90 0 126 107 121 179-120 53-232 115-349 174-7 4-15 5-23 5z m894 0c-8 0-16-1-23-5-117-59-229-121-349-174-5-72 31-179 121-179 36 0 67 20 88 49 25 35 37 82 34 128l152 80c26 13 37 45 25 71-10 19-29 30-48 30z m-453-537c-165 0-330-62-461-184l-2-3c-6-5-11-10-15-14-21-21-21-55-1-76 21-21 54-21 75-1l12 12 3 3c112 105 254 157 396 155 143-1 286-56 396-165 4-4 8-8 12-12 21-21 54-21 75-1 21 21 21 55 0 77-4 5-9 10-14 14-130 129-299 194-468 195-3 0-5 0-8 0z" horiz-adv-x="1000" />

<glyph glyph-name="emo-cry" unicode="&#xe80f;" d="M278 787c-7 0-15-2-23-5l-128-62-80-38c-2-1-4-2-6-3-1-5-1-11-1-16l0 0 0-1 0 0c0-69 40-162 122-162l0 0 0 0 0 0c34 0 65 18 87 49 26 35 37 82 34 128l18 9c27 12 38 44 25 71-9 19-28 30-48 30z m212 0c-20 0-39-11-48-30-13-27-1-59 25-71l18-9c-3-46 9-93 34-128 22-31 53-49 87-49l0 0 1 0 0 0c82 0 121 93 122 162l0 0 0 1 0 0c0 5-1 11-1 16-2 1-5 2-7 3l-80 38-128 62c-7 3-15 5-23 5z m279-302c-7 0-15-5-21-16-42-72-96-259 27-259 123 1 73 182 16 261-6 8-14 13-22 14z m-512-138c-57 0-112-9-166-26-10-4-20-7-30-11-11-5-21-9-30-13l0 0-1-1 0 0c-26-12-37-44-25-70 13-26 44-38 70-25l0-1c9 5 17 8 24 11 9 3 17 6 25 9 43 14 88 21 133 21 51 0 101-9 148-27 19-7 37-15 55-24 91-49 163-130 200-232 10-27 40-41 68-31 27 10 42 40 32 67-46 127-137 228-250 289-22 12-45 22-69 31-57 21-120 33-184 33z" horiz-adv-x="851" />

<glyph glyph-name="emo-squint" unicode="&#xe811;" d="M128 607c-30 0-54-24-54-54 0-30 24-54 54-54l267 0c30 0 54 24 54 54 0 30-24 54-54 54l-267 0z m476 0c-29 0-54-24-54-54 0-30 25-54 54-54l267 0c30 0 54 24 54 54 0 30-24 54-54 54l-267 0z m342-406c-13 0-27-5-37-16-4-4-8-8-12-12-111-109-253-164-396-165-142-2-285 50-396 155l-3 3-12 12c-21 21-54 20-75-1-20-21-20-55 1-76 3-4 8-8 14-14l3-3c132-124 301-186 469-184 169 1 337 67 468 195 5 5 9 10 14 14 20 22 20 56-1 77-10 10-23 15-37 15z" horiz-adv-x="999" />

<glyph glyph-name="emo-laugh" unicode="&#xe812;" d="M206 742c-77 0-151-39-196-103-17-24-11-57 13-74 24-17 58-12 75 13 43 61 127 74 186 31l0 0c4-2 8-5 11-9l1 0 1-1c3-3 7-7 10-11l1-1 0 0 0 0 1-1 0 0c20-22 54-24 76-4 22 19 24 53 4 75-45 53-112 85-183 85z m486 0c-78 0-152-39-197-103-17-24-11-57 13-74 24-17 58-12 75 13 43 61 127 74 186 31l0 0c4-2 8-5 12-9l0 0 1-1c4-3 7-7 10-11l1-1 0 0 0 0 1-1 1 0c19-22 53-24 75-4 22 19 24 53 5 75-46 53-113 85-183 85z m148-421l-765 0c-29 0-52-24-52-54 4-200 238-351 422-354 187-3 443 156 448 355 0 29-24 53-53 53z m-700-106l634 0c-61-121-190-201-330-197-130 4-247 83-304 197z" horiz-adv-x="893" />

<glyph glyph-name="emo-wink2" unicode="&#xe813;" d="M664 800c-61 0-110-65-110-144 0-80 49-145 110-145 60 0 110 65 110 145 0 79-50 144-110 144z m-343-98l-267 0c-30 0-54-24-54-54 0-30 24-54 54-54l267 0c30 0 54 24 54 54 0 30-24 54-54 54z m-262-361c-6 0-13-1-19-3-27-10-41-41-31-68 46-127 136-228 249-289 22-12 45-22 69-31 58-21 120-33 184-33 57 0 113 9 166 27 10 3 20 7 30 11 11 4 22 8 31 12l0 1 0 0 0 0c26 12 38 44 25 71-13 26-44 37-70 25l0 0c-9-4-17-8-24-11-8-3-17-6-25-8-43-14-88-22-133-22-51 0-101 10-148 27-19 7-37 15-55 25-90 48-163 130-200 231-8 21-28 35-49 35z" horiz-adv-x="774" />

<glyph glyph-name="cog-alt" unicode="&#xe818;" d="M500 350q0 59-42 101t-101 42-101-42-42-101 42-101 101-42 101 42 42 101z m429-286q0 29-22 51t-50 21-50-21-21-51q0-29 21-50t50-21 51 21 21 50z m0 572q0 29-22 50t-50 21-50-21-21-50q0-30 21-51t50-21 51 21 21 51z m-215-235v-103q0-6-4-11t-8-6l-87-14q-6-19-18-42 19-27 50-64 4-6 4-11 0-7-4-11-12-17-46-50t-43-33q-7 0-12 4l-64 50q-21-11-43-17-6-60-13-87-4-13-17-13h-104q-6 0-11 4t-5 10l-13 85q-19 6-42 18l-66-50q-4-4-11-4-6 0-12 4-80 75-80 90 0 5 4 10 5 8 23 30t26 34q-13 24-20 46l-85 13q-5 1-9 5t-4 11v104q0 5 4 10t9 6l86 14q7 19 18 42-19 27-50 64-4 6-4 11 0 7 4 12 12 16 46 49t44 33q6 0 12-4l64-50q19 10 43 18 6 60 13 86 3 13 16 13h104q6 0 11-4t6-10l13-85q19-6 42-17l65 49q5 4 12 4 6 0 11-4 81-75 81-90 0-4-4-10-7-9-24-30t-25-34q13-27 19-46l85-12q6-2 9-6t4-11z m357-298v-78q0-9-83-17-6-15-16-29 28-63 28-77 0-2-2-4-68-40-69-40-5 0-26 27t-29 37q-11-1-17-1t-17 1q-7-11-29-37t-25-27q-1 0-69 40-3 2-3 4 0 14 29 77-10 14-17 29-83 8-83 17v78q0 9 83 18 7 16 17 29-29 63-29 77 0 2 3 4 2 1 19 11t33 19 17 9q4 0 25-26t29-38q12 1 17 1t17-1q28 40 51 63l4 1q2 0 69-39 2-2 2-4 0-14-28-77 9-13 16-29 83-9 83-18z m0 572v-78q0-9-83-18-6-15-16-29 28-63 28-77 0-2-2-4-68-39-69-39-5 0-26 26t-29 38q-11-1-17-1t-17 1q-7-12-29-38t-25-26q-1 0-69 39-3 2-3 4 0 14 29 77-10 14-17 29-83 9-83 18v78q0 9 83 17 7 16 17 29-29 63-29 77 0 2 3 4 2 1 19 11t33 19 17 9q4 0 25-26t29-37q12 1 17 1t17-1q28 39 51 62l4 1q2 0 69-39 2-2 2-4 0-14-28-77 9-13 16-29 83-8 83-17z" horiz-adv-x="1071.4" />

<glyph glyph-name="left-thick" unicode="&#xe82c;" d="M833 433v-166h-375l146-146-101-101-330 330 330 330 101-101-146-146h375z" horiz-adv-x="1000" />

<glyph glyph-name="right-small" unicode="&#xe82d;" d="M167 392v-84h500l-229-229 59-59 330 330-330 330-59-59 229-229h-500z" horiz-adv-x="1000" />

<glyph glyph-name="right-thick" unicode="&#xe82e;" d="M167 433v-166h375l-146-146 101-101 330 330-330 330-101-101 146-146h-375z" horiz-adv-x="1000" />

<glyph glyph-name="up-small" unicode="&#xe82f;" d="M542 17h-84v500l-229-229-59 59 330 330 330-330-59-59-229 229v-500z" horiz-adv-x="1000" />

<glyph glyph-name="up-bold" unicode="&#xe830;" d="M625 17h-250v333h-202l327 327 327-327h-202v-333z" horiz-adv-x="1000" />

<glyph glyph-name="up-thick" unicode="&#xe831;" d="M583 17h-166v375l-146-146-101 101 330 330 330-330-101-101-146 146v-375z" horiz-adv-x="1000" />

<glyph glyph-name="attachment" unicode="&#xe832;" d="M313 100a229 229 0 0 0-230 229 229 229 0 0 0 230 229h437a167 167 0 0 0 167-166 167 167 0 0 0-167-167h-354a104 104 0 0 0-104 104 104 104 0 0 0 104 104h312v-62h-312a42 42 0 0 1-42-42 42 42 0 0 1 42-41h354a104 104 0 0 1 104 104 104 104 0 0 1-104 104h-437a167 167 0 0 1-167-167 167 167 0 0 1 167-166h395v-63h-395z" horiz-adv-x="1000" />

<glyph glyph-name="user" unicode="&#xe833;" d="M500 683a167 167 0 0 0 167-166 167 167 0 0 0-167-167 167 167 0 0 0-167 167 167 167 0 0 0 167 166m0-416c184 0 333-75 333-167v-83h-666v83c0 92 149 167 333 167z" horiz-adv-x="1000" />

<glyph glyph-name="down-small" unicode="&#xe834;" d="M458 683h84v-500l229 230 59-60-330-330-330 330 59 60 229-230v500z" horiz-adv-x="1000" />

<glyph glyph-name="down-thick" unicode="&#xe835;" d="M417 683h166v-375l146 146 101-101-330-330-330 330 101 101 146-146v375z" horiz-adv-x="1000" />

<glyph glyph-name="left-small" unicode="&#xe836;" d="M833 392v-84h-500l230-229-60-59-330 330 330 330 60-59-230-229h500z" horiz-adv-x="1000" />

<glyph glyph-name="left-bold" unicode="&#xe837;" d="M833 475v-250h-333v-202l-327 327 327 327v-202h333z" horiz-adv-x="1000" />

<glyph glyph-name="file-pdf" unicode="&#xe838;" d="M583 475h230l-230 229v-229m-291 292h333l250-250v-500a83 83 0 0 0-83-84h-500c-47 0-84 38-84 84v666a83 83 0 0 0 84 84m205-435c17-38 39-69 64-90l17-13c-36-7-86-19-139-39v0l-5-2 21 44c19 36 33 69 42 100m270-159c8 7 11 17 12 27 1 9-1 17-5 23-12 20-44 29-95 29l-54-3-36 24c-26 22-50 60-67 107l2 6c14 55 26 122-1 150-7 7-16 10-25 10h-10c-16 0-30-16-33-32-16-56-7-86 9-136v-1c-11-37-24-79-45-122l-40-75-37-20c-50-32-74-67-79-89-1-8 0-15 2-22l2-2 20-13 18-5c34 0 72 40 124 128l7 3c43 14 97 23 168 31 43-21 94-31 125-31 19 0 31 5 38 13m-17 30l4-5c-1-4-2-5-4-5h-2l-8-1c-19 0-48 8-79 21 4 4 6 4 10 4 58 0 75-10 79-14m-382-61c-27-50-52-77-70-84 2 16 20 44 50 71l20 13m126 288c-10 37-10 68-3 85l3 5 6-2c7-10 8-23 4-46l-1-7-7-34-2-1z" horiz-adv-x="1000" />

<glyph glyph-name="revert-replay" unicode="&#xe839;" d="M500 642v166l-208-208 208-208v166a250 250 0 0 0 250-250 250 250 0 0 0-250-250 250 250 0 0 0-250 250h-83a333 333 0 0 1 333-333 333 333 0 0 1 333 333 333 333 0 0 1-333 334z" horiz-adv-x="1000" />

<glyph glyph-name="bell" unicode="&#xe83a;" d="M667 142h-375v271c0 104 83 187 187 187 104 0 188-83 188-187m83-230v230c0 127-89 235-208 263v28a63 63 0 0 1-63 63 63 63 0 0 1-62-63v-28c-120-28-209-136-209-263v-230l-83-83v-42h708v42m-354-167a83 83 0 0 1 84 84h-167a83 83 0 0 1 83-84z" horiz-adv-x="1000" />

<glyph glyph-name="bookmark-empty" unicode="&#xe83b;" d="M708 100l-208 91-208-91v542h416m0 83h-416a83 83 0 0 1-84-83v-667l292 125 292-125v667c0 46-38 83-84 83z" horiz-adv-x="1000" />

<glyph glyph-name="help" unicode="&#xe83c;" d="M417 58h125v-125h-125v125m83 709c223-9 320-234 188-403-35-42-91-69-118-104-28-35-28-77-28-118h-125c0 69 0 128 28 170 27 41 83 66 118 93 100 94 75 226-63 237a125 125 0 0 1-125-125h-125a250 250 0 0 0 250 250z" horiz-adv-x="1000" />

<glyph glyph-name="file-new" unicode="&#xe83d;" d="M542 475h229l-229 229v-229m-292 292h333l250-250v-500a83 83 0 0 0-83-84h-500c-46 0-83 38-83 84v666c0 47 37 84 83 84m208-542v125h-83v-125h-125v-83h125v-125h83v125h125v83h-125z" horiz-adv-x="1000" />

<glyph glyph-name="file" unicode="&#xe83e;" d="M542 475h229l-229 229v-229m-292 292h333l250-250v-500a83 83 0 0 0-83-84h-500c-46 0-83 38-83 84v666c0 47 37 84 83 84m208-84h-208v-666h208l292 0v375h-292v291z" horiz-adv-x="1000" />

<glyph glyph-name="book-open" unicode="&#xe83f;" d="M875 642c-46 14-97 21-146 21-81 0-169-17-229-63-60 46-148 63-229 63-81 0-169-17-229-63v-610c0-11 10-21 21-21 4 0 6 2 10 2 56 27 137 46 198 46 81 0 169-17 229-63 56 36 158 63 229 63 69 0 140-13 198-44 4-2 6-2 11-2 10 0 20 10 20 21v608c-25 19-52 31-83 42m0-563c-46 15-96 21-146 21-71 0-173-27-229-62v479c56 35 158 62 229 62 50 0 100-6 146-21v-479z" horiz-adv-x="1000" />

<glyph glyph-name="pencil" unicode="&#xe840;" d="M702 736c-17 0-32-6-45-18l-88-88 221-222 88 88c25 25 25 65 0 89l-132 133c-13 12-28 18-44 18m-163-136l-337-338 106-12 8-95 95-7 12-107 337 338m-583-156l-73-278 279 74-10 90-96 7-7 97" horiz-adv-x="1000" />

<glyph glyph-name="check" unicode="&#xe841;" d="M875 558l-500-500-229 230 59 58 170-170 441 441 59-59z" horiz-adv-x="1000" />

<glyph glyph-name="home" unicode="&#xe842;" d="M417 17v250h166v-250h209v333h125l-417 375-417-375h125v-333h209z" horiz-adv-x="1000" />

<glyph glyph-name="link" unicode="&#xe843;" d="M441 291c17-16 17-43 0-59-16-16-43-16-59 0-81 81-81 213 0 295v0l148 147c81 81 213 81 294 0 81-81 81-213 0-294l-62-62c1 34-5 68-17 100l20 20c49 49 49 128 0 177-49 49-128 49-177 0l-147-147c-49-49-49-128 0-177m118 177c16 16 43 16 59 0 81-81 81-213 0-295v0l-148-147c-81-81-213-81-294 0-81 81-81 213 0 294l62 63c0-35 5-69 17-102l-20-19c-49-49-49-128 0-177 49-49 128-49 177 0l147 147c49 49 49 128 0 177-17 16-17 43 0 59z" horiz-adv-x="1000" />

<glyph glyph-name="checkbox-marked" unicode="&#xe844;" d="M417 142l-209 208 59 59 150-149 316 316 59-59m0 208h-584c-46 0-83-37-83-83v-584a83 83 0 0 1 83-83h584a83 83 0 0 1 83 83v584c0 46-37 83-83 83z" horiz-adv-x="1000" />

<glyph glyph-name="login" unicode="&#xe845;" d="M792 725h-584c-46 0-83-37-83-83v-167h83v167h584v-584h-584v167h-83v-167a83 83 0 0 1 83-83h584a83 83 0 0 1 83 83v584c0 46-37 83-83 83m-372-524l59-59 209 208-209 208-59-58 108-108h-403v-84h403l-108-107z" horiz-adv-x="1000" />

<glyph glyph-name="down-open-big" unicode="&#xe846;" d="M309 493l191-192 191 192 59-60-250-250-250 250 59 60z" horiz-adv-x="1000" />

<glyph glyph-name="logout" unicode="&#xe847;" d="M587 200l108 108h-403v84h403l-108 108 59 58 208-208-208-208-59 58m205 525a83 83 0 0 0 83-83v-195l-83 83v112h-584v-584h584v112l83 83v-195a83 83 0 0 0-83-83h-584c-46 0-83 38-83 83v584c0 46 37 83 83 83h584z" horiz-adv-x="1000" />

<glyph glyph-name="up-open-big" unicode="&#xe848;" d="M309 208l191 191 191-191 59 59-250 250-250-250 59-59z" horiz-adv-x="1000" />

<glyph glyph-name="files" unicode="&#xe849;" d="M625 558h229l-229 230v-230m-292 292h334l250-250v-500a83 83 0 0 0-84-83h-500c-46 0-83 37-83 83v667a83 83 0 0 0 83 83m-166-167v-750h666v-83h-666a83 83 0 0 0-84 83v750h84z" horiz-adv-x="1000" />

<glyph glyph-name="file-text" unicode="&#xe84a;" d="M542 475h229l-229 229v-229m-292 292h333l250-250v-500a83 83 0 0 0-83-84h-500c-46 0-83 38-83 84v666c0 47 37 84 83 84m375-667v83h-375v-83h375m125 167v83h-500v-83h500z" horiz-adv-x="1000" />

<glyph glyph-name="frown" unicode="&#xe84b;" d="M833 350a333 333 0 0 1-333 333 333 333 0 0 1-333-333 333 333 0 0 1 333-333 333 333 0 0 1 333 333m84 0a417 417 0 0 0-417-417 417 417 0 0 0-417 417 417 417 0 0 0 417 417 417 417 0 0 0 417-417m-271 167c33 0 62-29 62-63 0-33-29-62-62-62-33 0-63 29-63 62 0 34 30 63 63 63m-229-63c0-33-29-62-63-62-33 0-62 29-62 62 0 34 29 63 62 63 34 0 63-29 63-63m83-187c73 0 137-30 175-76l-60-59c-18 31-63 51-115 51-52 0-97-20-115-51l-60 59c38 46 102 76 175 76z" horiz-adv-x="1000" />

<glyph glyph-name="star-outline" unicode="&#xe84c;" d="M500 209l-157-95 42 179-139 120 183 15 71 168 71-168 183-15-139-120 42-179m260 351l-300 25-117 277-117-277-300-25 227-197-67-293 257 155 258-155-69 293 228 197z" horiz-adv-x="1000" />

<glyph glyph-name="sitemap" unicode="&#xe84d;" d="M375 767v-250h83v-125h-250c-46 0-83-37-83-84v-125h-83v-250h250v250h-84v125h250v-125h-83v-250h250v250h-83v125h250v-125h-84v-250h250v250h-83v125c0 47-37 84-83 84h-250v125h83v250h-250z" horiz-adv-x="1000" />

<glyph glyph-name="cog" unicode="&#xe84e;" d="M500 204a146 146 0 0 0-146 146 146 146 0 0 0 146 146 146 146 0 0 0 146-146 146 146 0 0 0-146-146m310 106c1 13 3 26 3 40 0 14-2 28-3 42l88 68c7 6 10 17 5 26l-84 144c-5 10-16 13-25 10l-104-42c-22 16-44 30-70 41l-16 110c-1 10-10 18-21 18h-166c-11 0-19-8-21-18l-16-110c-26-11-48-25-70-41l-104 42c-9 3-20 0-25-10l-83-144c-6-9-3-20 5-26l87-68c-1-14-2-28-2-42 0-14 1-27 2-40l-87-70c-8-6-11-17-5-26l83-144c5-10 16-13 25-10l104 43c22-17 44-31 70-42l16-110c2-10 10-18 21-18h166c11 0 20 8 21 18l16 110c26 11 48 25 70 42l104-43c9-3 20 0 25 10l84 144c5 9 2 20-5 26l-88 70z" horiz-adv-x="1000" />

<glyph glyph-name="puzzle" unicode="&#xe84f;" d="M854 392h-62v166c0 47-38 84-84 84h-166v62a104 104 0 0 1-104 104 104 104 0 0 1-105-104v-62h-166a83 83 0 0 1-84-84v-158h63c62 0 112-50 112-112 0-63-50-113-112-113h-63v-158a83 83 0 0 1 84-84h158v63c0 62 50 112 113 112 62 0 112-50 112-112v-63h158a83 83 0 0 1 84 84v166h62a104 104 0 0 1 104 105 104 104 0 0 1-104 104z" horiz-adv-x="1000" />

<glyph glyph-name="plus" unicode="&#xe850;" d="M792 308h-250v-250h-84v250h-250v84h250v250h84v-250h250v-84z" horiz-adv-x="1000" />

<glyph glyph-name="pencil-1" unicode="&#xe851;" d="M863 557c16 16 16 43 0 58l-98 98c-15 16-42 16-58 0l-77-76 156-157m-661-349v-156h156l461 461-156 157-461-462z" horiz-adv-x="1000" />

<glyph glyph-name="minus" unicode="&#xe852;" d="M792 308h-584v84h584v-84z" horiz-adv-x="1000" />

<glyph glyph-name="up" unicode="&#xe853;" d="M292 225l208 208 208-208h-416z" horiz-adv-x="1000" />

<glyph glyph-name="menu" unicode="&#xe854;" d="M125 600h750v-83h-750v83m0-208h750v-84h-750v84m0-209h750v-83h-750v83z" horiz-adv-x="1000" />

<glyph glyph-name="search" unicode="&#xe855;" d="M396 725a271 271 0 0 0 271-271c0-67-25-129-65-176l11-11h33l208-209-62-62-209 208v33l-11 11c-47-40-109-65-176-65a271 271 0 0 0-271 271 271 271 0 0 0 271 271m0-83c-104 0-188-84-188-188 0-104 84-187 188-187 104 0 187 83 187 187 0 104-83 188-187 188z" horiz-adv-x="1000" />

<glyph glyph-name="clipboard-empty" unicode="&#xe856;" d="M292 517v83h-84v-542h584v542h-84v-83h-416m83 166a125 125 0 0 0 125 125 125 125 0 0 0 125-125h167a83 83 0 0 0 83-83v-542a83 83 0 0 0-83-83h-584a83 83 0 0 0-83 83v542a83 83 0 0 0 83 83h167m125 42a42 42 0 0 1-42-42 42 42 0 0 1 42-41 42 42 0 0 1 42 41 42 42 0 0 1-42 42z" horiz-adv-x="1000" />

<glyph glyph-name="clipboard" unicode="&#xe857;" d="M708 475h-416v83h416m0-250h-416v84h416m-125-250h-291v83h291m-83 500a42 42 0 0 0 42-42 42 42 0 0 0-42-41 42 42 0 0 0-42 41 42 42 0 0 0 42 42m292 0h-174c-18 48-64 83-118 83-54 0-100-35-117-83h-175a83 83 0 0 1-83-83v-584a83 83 0 0 1 83-83h584a83 83 0 0 1 83 83v584a83 83 0 0 1-83 83z" horiz-adv-x="1000" />

<glyph glyph-name="clock" unicode="&#xe858;" d="M500 17a333 333 0 0 1 333 333 333 333 0 0 1-333 333 333 333 0 0 1-333-333 333 333 0 0 1 333-333m0 750a417 417 0 0 0 417-417 417 417 0 0 0-417-417c-230 0-417 188-417 417a417 417 0 0 0 417 417m21-209v-218l187-112-31-51-219 131v250h63z" horiz-adv-x="1000" />

<glyph glyph-name="down" unicode="&#xe859;" d="M292 433l208-208 208 208h-416z" horiz-adv-x="1000" />

<glyph glyph-name="cloud" unicode="&#xe85a;" d="M792 100h-542a167 167 0 0 0-167 167 167 167 0 0 0 167 166h30c27 97 116 167 220 167a229 229 0 0 0 229-229v-21h63a125 125 0 0 0 125-125 125 125 0 0 0-125-125m14 332c-28 143-154 251-306 251-120 0-225-68-277-168-125-13-223-119-223-248a250 250 0 0 1 250-250h542a208 208 0 0 1 208 208c0 110-85 199-194 207z" horiz-adv-x="1000" />

<glyph glyph-name="code-braces" unicode="&#xe85b;" d="M333 725a83 83 0 0 1-83-83v-167a83 83 0 0 0-83-83h-42v-84h42a83 83 0 0 0 83-83v-167a83 83 0 0 1 83-83h84v83h-84v209a83 83 0 0 1-83 83 83 83 0 0 1 83 83v209h84v83m250 0a83 83 0 0 0 83-83v-167a83 83 0 0 1 83-83h42v-84h-42a83 83 0 0 1-83-83v-167a83 83 0 0 0-83-83h-84v83h84v209a83 83 0 0 0 83 83 83 83 0 0 0-83 83v209h-84v83h84z" horiz-adv-x="1000" />

<glyph glyph-name="disk" unicode="&#xe85c;" d="M500 267c-46 0-83 37-83 83 0 46 37 83 83 83 46 0 83-37 83-83a83 83 0 0 0-83-83m0 416a333 333 0 0 1-333-333 333 333 0 0 1 333-333 333 333 0 0 1 333 333 333 333 0 0 1-333 333z" horiz-adv-x="1000" />

<glyph glyph-name="mail" unicode="&#xe85d;" d="M833 683h-666a83 83 0 0 1-84-83v-500a83 83 0 0 1 84-83h666a83 83 0 0 1 84 83v500a83 83 0 0 1-84 83m0-583h-666v417l333-209 333 209v-417m0 500l-333-208-333 208v0h666v0z" horiz-adv-x="1000" />

<glyph glyph-name="smile" unicode="&#xe85e;" d="M833 350a333 333 0 0 1-333 333 333 333 0 0 1-333-333 333 333 0 0 1 333-333 333 333 0 0 1 333 333m84 0a417 417 0 0 0-417-417 417 417 0 0 0-417 417 417 417 0 0 0 417 417 417 417 0 0 0 417-417m-500 104c0-33-29-62-63-62-33 0-62 29-62 62 0 34 29 63 62 63 34 0 63-29 63-63m291 0c0-33-29-62-62-62-33 0-63 29-63 62 0 34 30 63 63 63 33 0 62-29 62-63m-208-322c-73 0-137 31-175 76l60 59c18-30 63-52 115-52 52 0 97 22 115 52l60-59c-38-45-102-76-175-76z" horiz-adv-x="1000" />

<glyph glyph-name="meh" unicode="&#xe85f;" d="M354 392a63 63 0 0 0-62 62 63 63 0 0 0 62 63 63 63 0 0 0 63-63 63 63 0 0 0-63-62m292 0a63 63 0 0 0-63 62 63 63 0 0 0 63 63 63 63 0 0 0 62-63 63 63 0 0 0-62-62m-146-375a333 333 0 0 1 333 333 333 333 0 0 1-333 333 333 333 0 0 1-333-333 333 333 0 0 1 333-333m0 750a417 417 0 0 0 417-417 417 417 0 0 0-417-417c-230 0-417 188-417 417a417 417 0 0 0 417 417m-125-500h250a42 42 0 0 0 42-42 42 42 0 0 0-42-42h-250a42 42 0 0 0-42 42 42 42 0 0 0 42 42z" horiz-adv-x="1000" />

<glyph glyph-name="star" unicode="&#xe860;" d="M500 130l258-155-69 293 228 197-300 26-117 276-117-276-300-26 227-197-67-293 257 155z" horiz-adv-x="1000" />

<glyph glyph-name="code" unicode="&#xe861;" d="M608 158l192 192-192 192 59 58 250-250-250-250-59 58m-216 0l-192 192 192 192-59 58-250-250 250-250 59 58z" horiz-adv-x="1000" />

<glyph glyph-name="user-circle" unicode="&#xe86c;" d="M500 50c-104 0-196 53-250 133 1 84 167 130 250 130 83 0 249-46 250-130-54-80-146-133-250-133m0 592a125 125 0 0 0 125-125 125 125 0 0 0-125-125 125 125 0 0 0-125 125 125 125 0 0 0 125 125m0 125a417 417 0 0 1-417-417 417 417 0 0 1 417-417 417 417 0 0 1 417 417c0 230-188 417-417 417z" horiz-adv-x="1000" />

<glyph glyph-name="comment-question" unicode="&#xe880;" d="M167 767a83 83 0 0 1-84-84v-500a83 83 0 0 1 84-83h166v-125a42 42 0 0 1 42-42h21v0c10 0 21 4 29 12l154 155h254a83 83 0 0 1 84 83v500c0 47-38 84-84 84h-666m0-84h666v-500h-288l-128-128v128h-250v500m341-62c-37 0-67-8-89-23-23-15-35-40-33-68-377 0-112 0 82 0 0 11 5 20 11 26 9 6 18 9 29 9 13 0 24-4 32-11 7-7 11-16 11-29 0-12-3-22-9-31-7-9-16-16-27-22-22-14-36-25-45-35-7-10-12-24-12-45h84c0 11 2 21 6 28 3 7 10 13 21 20 19 8 35 20 47 35 12 15 19 32 19 50 0 29-12 53-34 70-23 17-54 26-93 26m-50-271v-83h84v83h-84z" horiz-adv-x="1000" />

<glyph glyph-name="jira" unicode="&#xe881;" d="M500 767a66 66 0 0 0 66-66 66 66 0 0 0-66-66 66 66 0 0 0-66 66 66 66 0 0 0 66 66m-175-44c36 0 65-30 65-66 0-36-29-66-65-66a66 66 0 0 0-66 66 66 66 0 0 0 66 66m350 0c37 0 66-30 66-66 0-36-29-66-66-66a66 66 0 0 0-65 66 66 66 0 0 0 65 66m-183-329c-88 88-66 131-66 131h154c0-65-88-131-88-131m88-439c0 0 0 88-176 263-175 176-197 220-219 351 0 0 16 22 38 0 22-21 72-38 115-38 0 0 44-137 165-225 0 0 159 164 159 230 0 0 49-11 109 33 0 0 42 22 44 0 6-44-38-197-219-351 0 0 115-131 104-263h-120m-198 220l93-105c-43-43-49-137-49-137h-131c21 176 87 242 87 242z" horiz-adv-x="1000" />

<glyph glyph-name="right-bold" unicode="&#xe882;" d="M167 225v250h333v202l327-327-327-327v202h-333z" horiz-adv-x="1000" />

<glyph glyph-name="down-bold" unicode="&#xe883;" d="M375 683h250v-333h202l-327-327-327 327h202v333z" horiz-adv-x="1000" />
</font>
</defs>
</svg>
